#TITLE:Cinderella Romance;
#SUBTITLE:;
#ARTIST:Hatsune Miku;
#TITLETRANSLIT:;
#SUBTITLETRANSLIT:;
#ARTISTTRANSLIT:;
#CREDIT:;
#BANNER:Hatsune Miku - Cinderella Romance-banner.jpg;
#BACKGROUND:Hatsune Miku - Cinderella Romance-bg.jpg;
#LYRICSPATH:Hatsune Miku - Cinderella Romance.lrc;
#CDTITLE:CDTitle.png;
#MUSIC:Hatsune Miku - Cinderella Romance.ogg;
#OFFSET:0.080;
#SAMPLESTART:82.640;
#SAMPLELENGTH:12.000;
#SELECTABLE:YES;
#BPMS:0.000=174.000;
#STOPS:;
#BGCHANGES:;
// cache tags:
#FIRSTBEAT:4.000;
#LASTBEAT:319.000;
#SONGFILENAME:songs/Vocaloid Party/Hatsune Miku - Cinderella Romance/Hatsune Miku - Cinderella Romance.sm;
#HASMUSIC:1;
#HASBANNER:1;
#MUSICLENGTH:112.791;
// end cache tags

//---------------dance-single - ----------------
#NOTES:
     dance-single:
     :
     Challenge:
     12:
     1.000,1.000,1.000,0.275,0.754,714.000,145.000,31.000,149.000,1.000:
0000
0000
0000
0000
,
0100
0001
0100
0010
0100
0010
1000
0010
,
0100
0001
0010
0001
1000
0010
0110
01M1
,
01M1
0001
0100
0001
0010
0001
1000
0100
,
1000
0100
M010
0001
1000
0100
M010
0001
1000
0100
M010
0001
1000
0100
M010
0001
,
1000
0000
0010
1000
0010
0100
0010
1000
0010
0000
0100
0000
0001
0000
0M10
0000
,
1001
0000
0100
0001
0100
0010
0100
0001
0100
0000
0001
0000
1000
0000
010M
0000
,
0110
0000
0001
0010
0001
0100
0001
1000
0001
0000
0100
0000
0010
0000
100M
0000
,
0100
0010
0001
0010
0001
0100
0001
1000
0010
1000
010M
1000
0100
0010
0001
0010
,
0001
0000
0000
1010
0000
0000
1000
0100
00M0
0100
1000
0000
0001
1000
0010
0100
,
0001
0000
0000
0110
0000
0000
0001
0100
00M0
0100
0001
0000
1000
0001
0100
0001
,
0100
0000
0000
0101
0000
0000
1000
0100
000M
0010
0100
0000
0010
0001
1000
0100
,
0010
0001
1000
0010
1000
0100
0010
0001
1000
0010
0100
0001
0010
0001
1000
0010
,
0100
0010
0100
0001
0010
0100
1000
0010
0100
0001
0010
0001
1000
0010
1000
0001
,
0100
0010
1000
0001
0100
0001
0010
0100
1000
0010
0100
0001
0100
0010
1000
0001
,
1000
0010
1000
0010
0100
0001
0100
0010
1000
0001
0010
0001
0100
0010
1000
0001
,
0100
0010
1000
0100
0010
0001
0100
0010
4000
0004
0M00
00M0
0M00
00M0
0M00
3003
,
1000
0001
0100
0001
0010
0100
1000
0010
,
0100
0001
0010
0001
0100
0010
1010
M110
,
0101
0001
0100
0010
1000
0000
0M11
0110
,
00M0
0101
000M
0110
0000
1M00
1010
0000
,
0101
0001
0100
0010
1000
0000
0110
01M1
,
0000
0011
0000
1010
01M1
01M1
1010
0100
,
0001
1000
0001
0010
0001
0000
1M10
1100
,
M000
0000
0110
0000
0000
0000
0001
0000
0100
0010
0100
0010
1000
0010
0100
0010
,
0200
0000
0010
0001
00M0
0001
0000
031M
,
0120
0M00
0000
1030
2010
01M0
0001
3100
,
0020
0000
1000
0130
20M1
0100
00M0
0100
,
3002
0000
00M0
0000
1000
0000
0010
0000
0100
0000
M0M0
0000
1000
0000
0013
0100
,
0001
0000
01M0
0110
0M00
1001
000M
2000
,
0010
0000
0000
0100
0100
0000
0010
0000
,
3100
M001
0010
0100
0010
0001
1000
0010
,
0100
0010
1000
0001
0110
1010
M110
01M1
,
0011
0100
0010
0100
1000
0010
0M00
0110
,
0000
1000
1010
M100
0001
0010
0001
1000
,
00M1
0100
00M1
0100
00M1
0100
00M1
0100
M010
0100
M010
0100
M010
0100
M010
0100
,
M010
1000
0010
1000
0100
0010
0001
0010
,
0001
0100
0010
0100
0001
1000
0001
0220
,
M33M
1001
101M
0101
011M
1010
11M0
0101
,
0210
00M0
0301
0011
0M00
0101
0010
1000
,
0100
0010
1MM1
0001
0100
0010
0100
0001
,
1000
0100
0010
0100
1000
0010
1000
0001
,
M22M
0330
1MM1
0000
2MM2
3003
M11M
0100
,
0101
M11M
1MM1
1M1M
,
0101
000M
0110
0000
0010
1000
0001
0100
,
0010
1000
0001
0100
0010
1000
0010
0202
,
M3M3
1010
M110
0101
011M
1MM1
0110
1M1M
,
1002
M000
1003
1MM1
0000
011M
0000
1M10
,
0001
1000
0010
0100
0101
000M
0110
M000
,
1010
0000
0001
011M
0000
1010
0000
2M2M
,
0030
00M1
0020
0000
3031
MM00
0110
010M
,
1100
0000
1M10
0000
01M1
0000
1M01
1010
,
220M
0000
3300
1M10
0110
M000
0110
0011
,
11M0
0000
0110
01M2
1000
0023
023M
23M0
,
3M20
M030
11MM
0000
MM22
0033
11MM
0000
,
MM22
0033
11MM
0100
10M1
1001
1M10
1100
,
M100
0010
0001
0100
0010
1000
0010
0100
,
0001
0010
1001
0110
0M10
1100
0011
0100
,
100M
0010
0100
0010
0100
0001
1000
0001
0100
0010
1000
0010
0100
0010
0100
0010
,
0100
1000
0010
0100
0001
1000
0001
0000
011M
0000
1010
0000
M101
0000
0000
0000
,
1010
M100
1010
M100
01M1
0001
1000
0010
,
0100
0010
1000
0001
0100
0010
1010
M010
,
0110
0001
1000
0010
0100
0010
1100
M100
,
0110
0100
1000
0010
0100
0001
0101
001M
,
0110
1M00
0101
1M00
11MM
0010
0001
0100
,
0010
1000
0010
0100
0001
0010
1100
0M11
,
1100
1000
0001
0010
0001
1000
0110
1M01
,
0110
00M1
1000
0100
0010
0001
0100
0010
,
1000
0100
0010
0001
1000
0100
0010
0001
0010
0100
1000
0001
0010
0100
1000
0001
,
0100
0010
1000
0100
1000
0001
1000
0010
1000
0100
0010
0001
0100
0010
1000
0001
,
0100
0001
1000
0100
0010
0001
0100
0010
1000
0010
0100
0010
0100
0000
1M10
0000
,
0110
11M0
0011
0000
1M10
0110
1M10
0000
,
0010
0100
0010
0100
0001
0010
0100
1000
0010
1000
0010
1000
0001
0100
0010
1000
,
0010
0100
0001
0010
0001
1000
0010
0100
0001
0010
0001
1000
0010
0100
0001
1000
,
0010
0100
0001
0010
0001
0100
0010
1000
0001
0010
0001
0010
0001
0100
0001
0100
,
0010
0M00
0000
1000
0110
00M0
1010
M101
,
0100
0010
1000
0010
0100
0010
1000
0010
1000
0100
0010
0100
1000
0010
0100
0001
,
0010
0001
1000
0100
1000
0010
0100
0001
1000
0100
1000
0001
1000
0010
0100
0001
,
1000
0010
0100
0001
1000
0010
0100
0001
0100
0010
1000
0000
1100
0000
0110
0000
,
1001
0011
1010
0100
1010
0110
1010
0000
;

//---------------dance-single - ----------------
#NOTES:
     dance-single:
     :
     Beginner:
     1:
     0.119,0.175,0.018,0.062,0.000,85.000,2.000,7.000,0.000,0.000:
0000
0000
0000
0000
,
1000
0000
0000
0000
,
0001
0000
0000
0000
,
1000
0000
0000
0000
,
0001
0000
1000
0000
,
1000
0000
0000
0000
,
0100
0000
0000
0000
,
0010
0000
0000
0000
,
0002
0000
0000
0003
,
0110
0000
0000
0000
,
0100
0000
0000
0000
,
1000
0000
0000
0000
,
0100
0000
0000
0000
,
2020
0000
0000
0000
,
0000
0000
0000
0000
,
0000
0000
0000
0000
,
0000
0000
3030
0000
,
0100
0000
0000
0000
,
0010
0000
0000
0000
,
1000
0000
0000
0000
,
0000
0000
0000
0000
,
0100
0000
0000
0000
,
0000
0000
0000
0000
,
1000
0000
0000
0000
,
0000
0000
0020
0000
,
0130
0000
0000
0000
,
0001
0000
0000
0000
,
0100
0000
0000
0000
,
0001
0000
0000
0000
,
1000
0000
0000
0000
,
0001
0000
0000
0000
,
0010
0000
0010
0000
,
0100
0000
0100
0000
,
1000
0000
0001
0000
,
0000
0000
0000
0000
,
0200
0000
0000
0000
,
0301
0000
0000
0000
,
0010
0000
0000
0000
,
0100
0000
0000
0000
,
1000
0000
0000
0000
,
0010
0000
0000
0000
,
0100
0000
0000
0000
,
0001
0000
0001
0000
,
0001
0000
0000
0000
,
0010
0000
0000
0000
,
0100
0000
0000
0000
,
0010
0000
0000
0000
,
0100
0000
0000
0000
,
1000
0000
0000
0000
,
0001
0000
0000
0000
,
0010
0000
0000
0000
,
0100
0000
0100
0000
,
1000
0000
0000
0000
,
0010
0000
0000
0000
,
0100
0000
0000
0000
,
0001
0000
0000
0000
,
0010
0000
0000
0000
,
0001
0000
0000
0000
,
0200
0000
0000
0000
,
0020
0000
0000
0330
,
1000
0000
0000
0000
,
0010
0000
0000
0000
,
0100
0000
0000
0000
,
0001
0000
0000
0000
,
1000
0000
0000
0000
,
0100
0000
0000
0000
,
0010
0000
0000
0000
,
0001
0000
0000
0000
,
0010
0000
0010
0000
,
0010
0000
0000
0000
,
0001
0000
0001
0000
,
0001
0000
0000
0000
,
1000
0000
1000
0000
,
1000
0000
0000
0000
,
0100
0000
0100
0000
,
0100
0000
0000
0000
,
1000
0000
0010
0000
,
0010
0000
0000
0000
,
0100
0000
0001
0000
,
0001
0000
0000
0000
;

//---------------dance-single - ----------------
#NOTES:
     dance-single:
     :
     Easy:
     4:
     0.260,0.423,0.053,0.177,0.000,179.000,6.000,20.000,0.000,0.000:
0000
0000
0000
0000
,
1001
0000
0100
0000
,
0001
0000
0100
0000
,
0010
0000
0100
0000
,
0002
0000
0003
1001
,
1000
0000
0100
0000
,
0010
0000
0100
0100
,
1000
0000
0010
0000
,
1000
0000
0001
0001
,
0100
0000
0010
0000
,
1000
0000
0100
0000
,
0010
0000
0100
0000
,
1000
0000
0001
0000
,
0100
0000
0010
0000
,
0100
0000
0001
0000
,
1000
0000
0010
0000
,
0100
0000
0110
0000
,
0010
0000
1000
0000
,
0010
0000
0100
0000
,
0001
0000
0010
0000
,
0001
0000
0100
0010
,
0010
0000
1000
0000
,
0010
0000
0100
0000
,
0001
0000
0010
0001
,
0001
0000
0200
0310
,
1000
0000
0010
0000
,
0100
0000
0001
0000
,
1000
0000
0010
0000
,
0100
0000
0010
0000
,
1000
0000
0100
0000
,
0010
0000
0001
0000
,
1000
1000
2000
0000
,
3100
0100
0200
0000
,
0310
0000
0100
0000
,
1000
0000
0001
0000
,
0100
0001
0100
0001
,
0100
0000
0010
0000
,
1000
0000
0010
0000
,
0100
0010
0100
0010
,
0100
0000
0001
0000
,
1000
0001
0100
0000
,
0010
0000
0100
0000
,
0002
1003
0002
1003
,
0002
1003
0010
0000
,
1010
0000
1000
0000
,
0001
0000
0100
0000
,
0010
0010
1000
0001
,
1000
0000
0010
0000
,
1000
0000
0010
0000
,
0100
0000
0001
0000
,
0100
0000
0000
0000
,
0010
0000
1000
0000
,
0010
0000
0100
0000
,
0001
0000
0100
0000
,
0002
0013
0020
0130
,
0200
1300
0010
1000
,
0010
0000
0010
0000
,
1000
0000
0001
0000
,
0100
0000
0020
0000
,
0000
0000
1030
1000
,
0010
0000
0100
0000
,
0001
0000
0100
0000
,
0010
0000
1000
0000
,
0010
0000
0100
0000
,
0001
0000
0010
0000
,
0100
0000
1000
0000
,
0010
0000
1000
0000
,
0001
0000
0100
0100
,
0020
0000
1030
0000
,
0020
0000
0130
0000
,
0002
0000
1003
0000
,
0100
0000
0010
0000
,
2001
0000
3010
0000
,
0200
0000
0301
0000
,
2000
0000
3010
0000
,
0100
0000
0010
0000
,
2001
0000
3010
0000
,
0200
0000
0301
0000
,
2000
0000
3010
0000
,
0100
0000
0001
0000
;

//---------------dance-single - ----------------
#NOTES:
     dance-single:
     :
     Medium:
     6:
     0.517,0.599,0.222,0.381,0.000,339.000,25.000,43.000,0.000,0.000:
0000
0000
0000
0000
,
0100
0001
1000
0010
,
0100
0000
0010
0000
1000
0000
0001
1000
,
0001
0010
0100
0010
,
1100
0000
0101
0000
0011
0000
1000
0010
,
2000
0000
0020
3000
0130
0010
1000
0010
,
0200
0000
0002
0300
0013
0100
1000
0100
,
0020
0000
0200
0030
1300
0100
0010
0001
,
0020
0000
0200
0030
0310
0100
1000
0001
,
0100
0000
0000
1010
0000
0000
0001
0010
,
0100
0000
0000
0011
0000
0000
0001
0010
,
0100
0000
0000
1001
0000
0000
0100
0001
,
1000
0000
0100
0000
0010
0100
1000
0010
,
0200
0320
2030
3002
,
0203
0320
2030
3020
,
0230
0320
2030
3200
,
2300
0000
0000
0010
3200
0000
0000
0000
,
0301
0100
0001
1000
,
0100
0000
0010
0000
0001
0000
0100
0010
,
0100
0000
0010
0000
1000
0000
0001
1000
,
0000
0100
0000
0010
0000
0001
1000
0000
,
1100
0000
0010
0000
1000
0000
0001
0010
,
0000
0100
0000
0010
0100
0010
0001
0000
,
0100
0000
0010
0000
1000
0000
0001
0010
,
0000
0100
0000
1000
0010
0000
1010
0000
,
0100
0000
0001
0010
0000
0100
0000
0010
,
0000
0000
0200
0000
,
0301
0000
0001
0100
0000
0001
0000
0010
,
0100
0000
1000
0000
0001
0000
0100
0010
,
1000
0000
0100
0000
0010
0000
0001
0100
,
0010
0000
1000
0010
0100
0000
0001
1000
,
0020
0100
2030
0010
,
3002
1000
0203
0001
,
0310
0000
1000
0000
0001
1000
0000
0100
,
0000
0010
0001
0000
1000
0000
0002
0000
,
0400
0000
0000
0000
0000
0000
0000
0300
,
1003
0000
0010
0000
0100
0010
0100
0000
,
0010
1000
0100
0010
0000
0001
0000
1000
,
0000
0100
0010
0000
0001
0010
0100
0010
,
0001
0000
1000
0000
0100
0000
1000
0010
,
0100
0101
1000
0001
,
0100
0000
0010
0000
1000
0000
0001
0100
,
0010
1010
0000
1100
,
0000
1001
0001
0110
,
0010
0000
0100
0000
0001
0010
0100
0000
,
1000
0001
0100
0010
0000
1000
0000
0001
,
0000
1000
0100
0000
0010
0001
1000
0100
,
0010
0100
1000
0010
,
0100
0000
0001
0100
,
0010
0000
1000
0001
0000
0100
0000
0020
,
0000
0000
0030
0000
,
1000
0001
0010
0100
,
0010
0000
1010
0000
,
0101
0000
0000
0000
0010
0000
1000
0100
,
0010
0011
0000
0101
,
0000
1001
0100
0001
,
0020
0000
0230
0000
,
0000
0000
0300
0000
0100
1000
0010
0000
,
0200
0000
0000
0302
2003
0000
0000
0000
,
0000
0000
3010
0000
0100
0001
0010
0000
,
0100
1000
0010
0100
,
0010
0000
0100
0001
0010
0000
0001
0100
,
0010
0000
0100
0000
0001
0000
1000
0010
,
0100
0000
0001
0100
0010
0000
0100
0000
,
0001
0000
0100
0000
0010
0000
1000
0100
,
0010
0000
0001
0100
0010
0000
1000
0001
,
1000
0000
0010
1000
0010
0000
0100
0001
,
0200
0000
0310
1000
0010
1000
0010
0000
,
2000
0001
0100
0001
,
3200
0010
1000
0010
,
0302
1000
0100
1000
,
0023
0000
0001
0000
,
0130
1000
0010
1010
,
0100
0010
1000
0110
,
0001
0100
1001
0100
,
0110
0000
0000
0010
2000
0000
0000
0000
,
3020
0100
1030
0110
,
0200
0010
0301
0011
,
2000
0001
3100
0110
,
1000
0001
1000
0001
1000
0000
0000
0000
;

//---------------dance-single - ----------------
#NOTES:
     dance-single:
     :
     Hard:
     9:
     0.743,0.848,0.638,0.851,0.027,419.000,72.000,96.000,2.000,0.000:

0000
0000
0000
0000
,
0012
1003
0120
1030
,
0012
0000
0103
0000
0201
0000
0310
1000
,
0020
1030
2100
3010
,
1000
0010
0100
0010
0100
0010
0100
0000
,
1010
0000
0100
0010
1000
0001
0100
0000
,
0101
0000
0001
1000
0010
0100
0010
0000
,
1100
0000
0010
0001
0100
0001
0010
0000
,
0110
0000
1000
0001
0100
0010
1000
0010
,
2010
0000
0000
0010
3000
0000
1020
0000
0000
1000
0000
0000
0130
0000
0001
0000
,
0201
0000
0000
0001
0300
0000
0102
0000
0000
0100
0003
0000
0001
0000
1000
0000
,
1200
0000
0000
1000
0300
0000
2100
0000
0000
0100
3000
0000
0010
0000
0001
0000
,
1000
0010
0100
0001
0010
0001
0010
0100
,
2000
0000
0200
3000
0020
0300
0002
0003
,
0002
0030
0020
0003
0200
0030
2000
3000
,
2000
0300
0002
3000
0020
0003
0230
0000
,
1300
0100
0010
0001
2000
0000
0000
0000
,
3010
1000
0010
0100
0002
0000
1003
0210
,
0000
0001
0000
0010
0000
1300
0010
1000
,
0001
0100
0010
1000
0200
0000
1000
1300
,
0000
0101
0000
0110
0000
1000
0010
0000
,
1000
0001
0010
0100
0020
0000
0031
0012
,
0000
1000
0000
0103
0010
1000
0001
0100
,
0010
0200
0000
0301
2000
0000
3010
2000
,
0000
0200
0000
3300
1001
0000
1010
0000
,
0200
0000
0310
1000
0000
0120
0000
2000
,
0000
0000
0030
3100
0001
0100
1000
0010
,
0200
0000
0001
0302
0000
1000
0003
1020
,
2000
0000
0030
3010
0110
0000
0001
1000
,
0200
0000
0010
0320
0000
0032
0000
0203
,
0000
0000
0000
0010
0310
0000
1010
0000
,
0100
0010
1000
0001
0100
0010
1000
0001
,
2000
3M02
2003
302M
2030
3000
0100
0001
,
0100
0010
0100
1000
0010
0100
0000
0101
,
0000
1000
0010
1000
0000
0001
1000
0100
,
0010
0001
0010
0100
1000
1000
1010
0000
,
2000
0000
3020
0000
0130
0010
1000
0100
,
1000
0010
0100
0020
0000
0100
0000
2030
,
0000
3010
1000
0010
0100
0001
0010
0100
,
1000
0000
0010
0200
0000
0001
0000
0310
,
0000
0000
0110
2000
0000
0100
3000
0020
,
0000
0000
0032
0000
2000
0003
3010
1000
,
0100
0000
1010
0000
0010
0000
1001
0100
,
0001
1100
0101
1010
,
0200
0000
0320
0000
1030
0100
0010
0100
,
0010
0100
1000
0002
0000
0100
0000
0023
,
0000
0031
0100
1000
0100
0010
1000
0100
,
0020
0000
0031
0200
0000
0010
0000
0302
,
0000
0003
0200
0302
,
0023
0000
0130
1000
0000
1100
0000
0200
,
0000
0000
0000
0000
0300
0000
0000
1000
,
0010
0000
0101
0000
0012
0000
2003
3000
,
1200
0000
0000
0310
0002
0000
0010
1000
,
1003
0000
0000
0210
0000
0301
0100
0010
,
1000
1001
1000
1001
,
0001
0000
1001
0001
1000
0010
0100
0010
,
2000
0000
0000
3001
0200
0000
0001
0000
,
0010
0300
1000
0000
0100
1000
0010
0100
,
0002
0000
0000
1003
0002
0000
0000
0000
,
0000
0000
0000
0003
0110
0000
0101
0000
,
2200
0300
0020
3030
0011
0000
0000
0020
,
0000
0031
1000
0100
0010
0000
0000
0001
,
0200
0000
0302
0000
0103
0010
1000
0022
,
0033
0202
0303
0022
0033
0001
0100
0010
,
2020
0030
3020
0000
0230
0000
0301
0010
,
0001
0100
0010
1000
0010
0000
0100
0001
,
0010
0100
1000
0010
0100
1000
0100
0010
,
2000
0000
3010
1000
0010
0100
0001
0100
,
0010
1100
0101
0110
,
1010
0110
0101
1010
,
0100
0010
1000
0001
1000
0010
0100
0001
,
0100
0000
0000
0001
0100
0010
1000
0000
,
1010
0110
0101
1100
,
1001
0011
1100
0110
,
1000
0100
0001
0100
1000
0001
0100
1000
,
0100
0000
0000
0001
0100
0000
0010
0100
,
1010
1100
0101
0011
,
0110
1100
0101
1001
,
1000
0100
1000
0010
0100
0010
1000
0100
,
0010
0000
0000
0001
0100
0010
0100
0000
;
